Categories
Welcome to Music Torrent Tracker - Sound-Park  ι  JOIN US FOR FULL ACCESS  ι  Log In  ι  Forgot your password?

VA - Woodstock 50 - Back To The Garden: The Anniversary Experience Day 3 (Lossless, Hi Res 2019)

Classic Rock
 
Date: 6 july 2019
Added: StasOn11
Views: 2577
  • ARTIST: VA
  • ALBUM / TITLE: Woodstock 50 - Back To The Garden: The Anniversary Experience Day 3 (Remastered, Bethel, NY, 8.17.1969)
  • RELEASE YEAR / DATE: 2019
  • COUNTRY: International
  • STYLE: Classic Rock
  • LABEL: Rhino Atlantic
  • DURATION: 04:35:12
  • FILE FORMAT: FLAC, (tracks) 24 bits, 48 KHz
  • QUALITY: Lossless

  • RATING: 10 / 6    
  • VOTE:

  • DOWNLOAD: DOWNLOAD TORRENT
  • СИДЫ:

Torrent description



01. "If you're too tired to chew, pass it on"
02. "The roads are fairly clear now"
03. "This is the largest group of people ever assembled in one place"
04. Dear Landlord
05. Feelin' Alright 06. Let's Go Get Stoned
07. Hitchcock Railway
08. With A Little Help From My Friends
09. "Isn't the rain beautiful?"
10. Rock & Soul Music
11. Love 12. Silver And Gold
13. Rock & Soul Music (Reprise)
14. Help Me
15. I'm Going Home
16. "Come down and say hello to us"
17. Chest Fever
18. Tears Of Rage
19. This Wheel's On Fire
20. I Shall Be Released
21. The Weight
22. "We've just had a slight change in running order"
23. "It's really a drag"
24. Leland Mississippi Blues
25. Mean Town Blues

MORE


HA

Источник (релизер): Stephenten
Between August 15-18, 1969, more than 400,000 people converged on Max Yasgur’s 600-acre dairy farm in upstate New York for Woodstock. Thirty-two acts performed including some of the most popular and influential musicians of the era such as Joan Baez, The Band, Crosby, Stills, Nash & Young, Creedence Clearwater Revival, Grateful Dead, Jimi Hendrix, Janis Joplin, Jefferson Airplane, Santana, Sly and the Family Stone, and The Who.

WOODSTOCK – BACK TO THE GARDEN – 50th ANNIVERSARY EXPERIENCE features 162 tracks recorded at the legendary festival. It is the first Woodstock collection to feature live recordings of every performer at the festival.

BACK TO THE GARDEN is intended to let people hear the festival as it really happened. Producer Andy Zax says he, sound producer Brian Kehew and mastering engineer Dave Schultz avoided interfering with the tapes as much as possible in order to preserve their authenticity. “It’s not surprising that other producers’ first reaction to these tapes over the years has been ‘uh-oh,’ immediately followed by ‘we’ve gotta find a way to fix this.’ I'm not unsympathetic to that approach, but if there's a single overriding lesson that Brian Kehew and I have learned since we began working with the Woodstock tapes in 2005, it’s this: you can't fix them… That’s less grim than it seems, because once you’ve accepted the idea that there is no way to make these recordings sound slick, you realize that these tapes are the sonic equivalent of heirloom tomatoes — slightly imperfect, but delicious.”


foobar2000 1.4 / Dynamic Range Meter 1.1.1
log date: 2019-07-05 06:00:07

--------------------------------------------------------------------------------
Analyzed: Blood Sweat & Tears / Woodstock 50 - Back To The Garden: The Anniversary Experience Day 3 (Live at Woodstock, Bethel, NY, 8/17/1969) (1-4)
Chip Monck & Sha Na Na / Woodstock 50 - Back To The Garden: The Anniversary Experience Day 3 (Live at Woodstock, Bethel, NY, 8/17/1969) (5)
Chip Monck / Woodstock 50 - Back To The Garden: The Anniversary Experience Day 3 (Live at Woodstock, Bethel, NY, 8/17/1969) (6-11)
Country Joe And The Fish / Woodstock 50 - Back To The Garden: The Anniversary Experience Day 3 (Live at Woodstock, Bethel, NY, 8/17/1969) (12-15)
Crosby, Stills & Nash / Woodstock 50 - Back To The Garden: The Anniversary Experience Day 3 (Live at Woodstock, Bethel, NY, 8/17/1969) (16-19)
Crosby, Stills, Nash & Young / Woodstock 50 - Back To The Garden: The Anniversary Experience Day 3 (Live at Woodstock, Bethel, NY, 8/17/1969) (20-23)
Hugh Romney / Woodstock 50 - Back To The Garden: The Anniversary Experience Day 3 (Live at Woodstock, Bethel, NY, 8/17/1969) (24)
Jimi Hendrix / Woodstock 50 - Back To The Garden: The Anniversary Experience Day 3 (Live at Woodstock, Bethel, NY, 8/17/1969) (25-27)
Joe Cocker / Woodstock 50 - Back To The Garden: The Anniversary Experience Day 3 (Live at Woodstock, Bethel, NY, 8/17/1969) (28-32)
John Morris, Barry Melton, Rainstorm & Audience / Woodstock 50 - Back To The Garden: The Anniversary Experience Day 3 (Live at Woodstock, Bethel, NY, 8/17/1969) (33)
John Morris / Woodstock 50 - Back To The Garden: The Anniversary Experience Day 3 (Live at Woodstock, Bethel, NY, 8/17/1969) (34)
Johnny Winter / Woodstock 50 - Back To The Garden: The Anniversary Experience Day 3 (Live at Woodstock, Bethel, NY, 8/17/1969) (35-37)
Max Yasgur / Woodstock 50 - Back To The Garden: The Anniversary Experience Day 3 (Live at Woodstock, Bethel, NY, 8/17/1969) (38)
Sha Na Na / Woodstock 50 - Back To The Garden: The Anniversary Experience Day 3 (Live at Woodstock, Bethel, NY, 8/17/1969) (39-44)
Ten Years After / Woodstock 50 - Back To The Garden: The Anniversary Experience Day 3 (Live at Woodstock, Bethel, NY, 8/17/1969) (45-46)
The Band / Woodstock 50 - Back To The Garden: The Anniversary Experience Day 3 (Live at Woodstock, Bethel, NY, 8/17/1969) (47-51)
The Butterfield Blues Band / Woodstock 50 - Back To The Garden: The Anniversary Experience Day 3 (Live at Woodstock, Bethel, NY, 8/17/1969) (52-54)
--------------------------------------------------------------------------------

DR Peak RMS Duration Track
--------------------------------------------------------------------------------
DR12 -0.28 dB -15.60 dB 2:57 28-More And More (Live at Woodstock, Bethel, NY, 8/18/1969) [2019 Mix]
DR12 -0.76 dB -16.11 dB 4:49 29-Spinning Wheel (Live at Woodstock, Bethel, NY, 8/18/1969) [2019 Mix]
DR11 -1.40 dB -16.68 dB 10:09 30-Smiling Phases (Live at Woodstock, Bethel, NY, 8/18/1969) [2019 Mix]
DR12 -0.60 dB -15.98 dB 4:54 31-You've Made Me So Very Happy (Live at Woodstock, Bethel, NY, 8/18/1969) [2019 Mix]
DR16 -5.74 dB -26.28 dB 1:22 43-Test (Live at Woodstock, Bethel, NY, 8/18/1969) [2019 Mix]
DR16 -6.25 dB -30.87 dB 1:34 16-Come down and say hello to us (Live at Woodstock, Bethel, NY, 8/17/1969) [2019 Mix]
DR13 -11.71 dB -29.34 dB 0:31 22-We've just had a slight change in running order (Live at Woodstock, Bethel, NY, 8/17/1969) [2019 Mix]
DR13 -12.18 dB -29.61 dB 0:55 23-It's really a drag (Live at Woodstock, Bethel, NY, 8/17/1969) [2019 Mix]
DR12 -8.95 dB -28.65 dB 1:03 27-It just doesn't seem to be necessary (Live at Woodstock, Bethel, NY, 8/18/1969) [2019 Mix]
DR15 -12.33 dB -32.03 dB 1:42 50-Thank you for making all this possible (Live at Woodstock, Bethel, NY, 8/18/1969) [2019 Mix]
DR16 -7.14 dB -29.15 dB 3:32 54-Good wishes, good day, and a good life (Live at Woodstock, Bethel, NY, 8/18/1969) [2019 Mix]
DR12 -2.57 dB -17.00 dB 2:12 10-Rock & Soul Music (Live at Woodstock, Bethel, NY, 8/17/1969) [2019 Mix]
DR12 -1.83 dB -16.09 dB 3:04 11-Love (Live at Woodstock, Bethel, NY, 8/17/1969) [2019 Mix]
DR12 -2.08 dB -17.21 dB 4:48 12-Silver And Gold (Live at Woodstock, Bethel, NY, 8/17/1969) [2019 Mix]
DR11 -1.60 dB -15.20 dB 12:27 13-Rock & Soul Music (Reprise) [Live at Woodstock, Bethel, NY, 8/17/1969] [2019 Mix]
DR12 -6.61 dB -24.11 dB 1:01 32-Tell 'em who we are, man (Live at Woodstock, Bethel, NY, 8/18/1969) [2019 Mix]
DR13 -0.66 dB -17.95 dB 8:38 33-Suite: Judy Blue Eyes (Live at Woodstock, Bethel, NY, 8/18/1969) [2019 Mix]
DR13 -1.12 dB -18.33 dB 2:46 34-Blackbird (Live at Woodstock, Bethel, NY, 8/18/1969) [2019 Mix]
DR14 -0.57 dB -17.19 dB 2:55 35-Marrakesh Express (Live at Woodstock, Bethel, NY, 8/18/1969) [2019 Mix]
DR11 -0.57 dB -14.06 dB 3:19 36-Sea Of Madness (Live at Woodstock, Bethel, NY, 8/18/1969) [2019 Mix]
DR11 -0.91 dB -14.29 dB 6:45 37-Wooden Ships (Live at Woodstock, Bethel, NY, 8/18/1969) [2019 Mix]
DR13 -8.23 dB -29.30 dB 1:03 38-Bummer! (Live at Woodstock, Bethel, NY, 8/18/1969) [2019 Mix]
DR10 -1.90 dB -14.09 dB 5:20 39-49 Bye-Byes (Live at Woodstock, Bethel, NY, 8/18/1969) [2019 Mix]
DR13 -1.47 dB -18.25 dB 2:21 01-If you're too tired to chew, pass it on (Live at Woodstock, Bethel, NY, 8/17/1969) [2019 Mix]
DR11 -2.72 dB -16.04 dB 9:12 51-Hear My Train A Comin' (Live at Woodstock, Bethel, NY, 8/18/1969) [2019 Mix]
DR10 -2.78 dB -15.78 dB 4:48 52-Izabella (Live at Woodstock, Bethel, NY, 8/18/1969) [2019 Mix]
DR8 -3.98 dB -13.08 dB 13:39 53-The Star-Spangled Banner (Live at Woodstock, Bethel, NY, 8/18/1969) [2019 Mix]
DR12 -1.53 dB -15.70 dB 8:08 04-Dear Landlord (Live at Woodstock, Bethel, NY, 8/17/1969) [2019 Mix]
DR12 -1.63 dB -16.04 dB 6:02 05-Feelin' Alright (Live at Woodstock, Bethel, NY, 8/17/1969) [2019 Mix]
DR12 -0.94 dB -15.71 dB 6:54 06-Let's Go Get Stoned (Live at Woodstock, Bethel, NY, 8/17/1969) [2019 Mix]
DR11 -1.20 dB -14.52 dB 6:04 07-Hitchcock Railway (Live at Woodstock, Bethel, NY, 8/17/1969) [2019 Mix]
DR8 -1.93 dB -14.41 dB 8:19 08-With A Little Help From My Friends (Live at Woodstock, Bethel, NY, 8/17/1969) [2019 Mix]
DR13 -8.62 dB -25.51 dB 5:36 09-Isn't the rain beautiful? (Live at Woodstock, Bethel, NY, 8/17/1969) [2019 Mix]
DR14 -2.18 dB -20.21 dB 1:09 02-The roads are fairly clear now (Live at Woodstock, Bethel, NY, 8/17/1969) [2019 Mix]
DR11 -1.08 dB -13.99 dB 5:14 24-Leland Mississippi Blues (Live at Woodstock, Bethel, NY, 8/18/1969) [2019 Mix]
DR10 -0.82 dB -14.51 dB 10:58 25-Mean Town Blues (Live at Woodstock, Bethel, NY, 8/18/1969) [2019 Mix]
DR11 -0.73 dB -14.11 dB 5:27 26-Johnny B. Goode (Live at Woodstock, Bethel, NY, 8/18/1969) [2019 Mix]
DR15 -1.35 dB -20.43 dB 2:36 03-This is the largest group of people ever assembled in one place (Live at Woodstock, Bethel, NY, 8/17/1969) [2019 Mix]
DR11 -1.51 dB -14.81 dB 2:28 44-Get A Job (Live at Woodstock, Bethel, NY, 8/18/1969) [2019 Mix]
DR12 -1.82 dB -16.02 dB 2:32 45-Come Go With Me (Live at Woodstock, Bethel, NY, 8/18/1969) [2019 Mix]
DR12 -1.13 dB -14.72 dB 2:58 46-Silhouettes (Live at Woodstock, Bethel, NY, 8/18/1969) [2019 Mix]
DR12 -1.23 dB -15.66 dB 2:58 47-At The Hop (Live at Woodstock, Bethel, NY, 8/18/1969) [2019 Mix]
DR12 -1.39 dB -16.43 dB 2:00 48-Duke Of Earl (Live at Woodstock, Bethel, NY, 8/18/1969) [2019 Mix]
DR13 -1.80 dB -17.81 dB 0:27 49-Get A Job (Reprise) [Live at Woodstock, Bethel, NY, 8/18/1969] [2019 Mix]
DR11 -2.12 dB -16.00 dB 15:37 14-Help Me (Live at Woodstock, Bethel, NY, 8/17/1969) [2019 Mix]
DR12 -1.15 dB -16.83 dB 12:21 15-I'm Going Home (Live at Woodstock, Bethel, NY, 8/17/1969) [2019 Mix]
DR13 -1.72 dB -16.88 dB 5:36 17-Chest Fever (Live at Woodstock, Bethel, NY, 8/17/1969) [2019 Mix]
DR14 -1.92 dB -18.79 dB 5:37 18-Tears Of Rage (Live at Woodstock, Bethel, NY, 8/17/1969) [2019 Mix]
DR11 -1.03 dB -14.58 dB 3:58 19-This Wheel's On Fire (Live at Woodstock, Bethel, NY, 8/17/1969) [2019 Mix]
DR11 -1.51 dB -15.22 dB 3:39 20-I Shall Be Released (Live at Woodstock, Bethel, NY, 8/17/1969) [2019 Mix]
DR13 -1.74 dB -17.38 dB 4:39 21-The Weight (Live at Woodstock, Bethel, NY, 8/17/1969) [2019 Mix]
DR11 -0.67 dB -14.30 dB 6:04 40-No Amount Of Loving (Live at Woodstock, Bethel, NY, 8/18/1969) [2019 Mix]
DR12 -0.81 dB -16.21 dB 11:05 41-Love March (Live at Woodstock, Bethel, NY, 8/18/1969) [2019 Mix]
DR10 -0.92 dB -13.83 dB 9:22 42-Everything's Gonna Be Alright (Live at Woodstock, Bethel, NY, 8/18/1969) [2019 Mix]
--------------------------------------------------------------------------------

Number of tracks: 54
Official DR value: DR12
Samplerate: 48000 Hz
Channels: 2
Bits per sample: 24
Bitrate: 1680 kbps
Codec: FLAC
================================================================================



Comments (12)


10 july 2019
quimgeoav   
0 
PR:XCityXXX GBXXX GBПостовХС
В
Л
Х

Obrigado


9 july 2019
StasOn11   
0 
PR:XCityXXX GBXXX GBПостовХС
В
Л
Х

Citation:  Ramir
Спасибо

Спасибо за "Спасибо"!


9 july 2019
Ramir   
+2 
PR:XCityXXX GBXXX GBПостовХС
В
Л
Х

Спасибо


9 july 2019
Gaphofone   
+1 
PR:XCityXXX GBXXX GBПостовХС
В
Л
Х

Merci beaucoup !


9 july 2019
Apyaqui   
+1 
PR:XCityXXX GBXXX GBПостовХС
В
Л
Х

Nice Thank You


9 july 2019
Apyaqui   
+1 
PR:XCityXXX GBXXX GBПостовХС
В
Л
Х

Thank you


9 july 2019
FREDZAPPA   
+1 
PR:XCityXXX GBXXX GBПостовХС
В
Л
Х

El resumen de una generación pensante y revolucionaria. gracias Mil!!!


7 july 2019
trader_01   
+1 
PR:XCityXXX GBXXX GBПостовХС
В
Л
Х

genau so !!!


7 july 2019
Bagdee   
+1 
PR:XCityXXX GBXXX GBПостовХС
В
Л
Х

Grand merci


7 july 2019
woollies66   
+1 
PR:XCityXXX GBXXX GBПостовХС
В
Л
Х

Thanx


+ More
 

Similar albums

Please enable Javascript!
Пожалуйста включите Javascript, иначе данный и другие сайты могут работать не корректно! Узнать как включить Javascript можно на Google Support