Categories
Welcome to Music Torrent Tracker - Sound-Park  ι  JOIN US FOR FULL ACCESS  ι  Log In  ι  Forgot your password?

Slipknot - We Are Not Your Kind (Lossless, Hi Res 2019)

Alt Metal / Nu Metal
 
Date: 9 august 2019
Added: StasOn11
Views: 3420
  • ARTIST: Slipknot
  • ALBUM / TITLE: We Are Not Your Kind
  • RELEASE YEAR / DATE: 2019
  • COUNTRY: United States
  • STYLE: Nu-Metal
  • LABEL: Roadrunner Records
  • DURATION: 01:03:37
  • FILE FORMAT: FLAC, (tracks) 24 bits, 44,1 KHz
  • QUALITY: Lossless
  • Site: slipknot1.com

  • RATING: 9.83 / 6    
  • VOTE:

  • DOWNLOAD: DOWNLOAD TORRENT
  • СИДЫ:

Torrent description



01. Insert Coin (1:40)
02. Unsainted (4:21)
03. Birth of the Cruel (4:36)
04. Death Because of Death (1:20)
05. Nero Forte (5:15)
06. Critical Darling (6:26)
07. A Liar's Funeral (5:27)
08. Red Flag (4:12)
09. What's Next (0:54)
10. Spiders (4:04)
11. Orphan (6:01)
12. My Pain (6:48)
13. Not Long for This World (6:36)
14. Solway Firth (5:58)

Qobuz

Источник (релизер): Andromaxvic



foobar2000 1.4.6 / Замер динамического диапазона (DR) 1.1.1
Дата отчёта: 2019-08-09 04:49:54

--------------------------------------------------------------------------------
Анализ: Slipknot / We Are Not Your Kind
--------------------------------------------------------------------------------

DR Пики RMS Продолжительность трека
--------------------------------------------------------------------------------
DR8 -1.28 дБ -12.32 дБ 1:39 01-Insert Coin
DR4 -1.20 дБ -6.88 дБ 4:21 02-Unsainted
DR6 -1.20 дБ -8.73 дБ 4:36 03-Birth Of The Cruel
DR4 -3.51 дБ -11.39 дБ 1:21 04-Death Because of Death
DR5 -1.20 дБ -7.60 дБ 5:15 05-Nero Forte
DR5 -1.20 дБ -7.74 дБ 6:26 06-Critical Darling
DR5 -1.20 дБ -8.69 дБ 5:27 07-A Liar's Funeral
DR5 -1.20 дБ -7.31 дБ 4:12 08-Red Flag
DR9 -1.25 дБ -18.13 дБ 0:54 09-What's Next
DR6 -1.20 дБ -9.41 дБ 4:04 10-Spiders
DR5 -1.20 дБ -8.04 дБ 6:02 11-Orphan
DR6 -1.20 дБ -10.46 дБ 6:48 12-My Pain
DR5 -1.20 дБ -9.28 дБ 6:36 13-Not Long for This World
DR5 -1.20 дБ -7.96 дБ 5:56 14-Solway Firth
--------------------------------------------------------------------------------

Количество треков: 14
Реальные значения DR: DR6

Частота: 44100 Гц
Каналов: 2
Разрядность: 24
Битрейт: 1672 кбит/с
Кодек: FLAC
================================================================================



 

Similar albums

+ More
  • Slipknot - We Are Not Your Kind (Lossless, Hi Res 2019)
  • Download Slipknot - We Are Not Your Kind (Lossless, Hi Res 2019) - free music torrent.

    Download Slipknot - We Are Not Your Kind (Lossless, Hi Res 2019) for free in Lossless quality.

    You can download the torrent file on the top of the page
.

    Look for more music Slipknot


Please enable Javascript!
Пожалуйста включите Javascript, иначе данный и другие сайты могут работать не корректно! Узнать как включить Javascript можно на Google Support